IP камера DIGOO DG-MYQ - хранит видео в облаке Amazon Cloud, работает быстро, но платно. Скрытый микрофон wifi запись в облако


IP камера DIGOO DG-MYQ - хранит видео в облаке Amazon Cloud, работает быстро, но платно

Тестируем IP камеру с облачным хранилищем. Пробный период тоже дают. Внешне она похожа на Digoo DG-M1Q, но не стоит их путать.

Официальные характеристики камеры:

Дополнительная информация

Description Brand Digoo Model DG-MYQ Cloud Storage IP Camera Image Sensor 1/4 Progressive CMOS Sensor Lens 2.1mm 110° Wide-Angle Lens Day/Night IR-CUT Auto Switch Filter Image Image HD 720P (1280*720) Frame Rate 25fps± internet adaptively adjustment Setting Brightness, Contrast, Chroma, Saturation Camera Memory Support Micro TF Card Slot (Max to 64GB) Cloud Storage Onvif Support Network Protocols TCP/IP, UDP, DNS/DDNS, SMTP, UPNP,DHCP,HTTP,etc. Network WIFI, 802.11 b/g/n Fast Configuration Acoustic smart link configuration (WIFI fast configuration) Support 2.4G router mode. (Not support 5Ghz yet) Security User authentication, Software Encryption Support System All computer Browsers, Internet Explorer, Safari, Firefox, Chrome, Opera, Mobile phone : IOS 7 up, Adroid 4.0 up General IR Light 10Pcs IR LED IR Distance 10m Operation Temperature -10°C~+50°C RH95% Max Power Supply DC 5V/1A+ Power Consumer 3W MAX Installing Way 1. Replace your any old camera in same frame support. 2. Simply hook on the wall, support hook or a wall nail. 3. Sticker on the wall. Etc...any place you can fix the camera :) Color Sand Black APP Installation Search "Digoo Cloud "in A pple Store(for IOS device) or Google Play Market(for Android device) Package Includes : 1 x Digoo DG-MYQ Cloud Storage IP Camera 1 x Digoo DG-MYQ Full English User Manual 1 x Digoo DG-MYQ Original Color Gift Package, Full PE Foam Cover Protection

Приезжает камера в такой маленькой коробочке:

Комплект максимально минимальный: только камера и бумажонка.

Больше нет ничего, даже печатной инструкции, только ссылка где ее скачать.

Просмотреть и скачать можно тут:docs.google.com/document/d/148XCPBLwgafqWavPOwN53UlgmGFhIVBv3P4yTt3ioMk/

Сама камера выполнена из глянцевого пластика. По форме напоминает некоторые другие камеры на рынке, например, Escam Button Q6, на которую я делал обзор, а еще больше на Digoo DG-M1Q. Спереди традиционно объектив, 10 ИК диодов, датчик освещения, индикатор событий.

ИК светодиоды видимы глазам.

Сверху имеется петелька для подвешивания камеры на крючок или шуруп. Также есть логотип Digoo.

Еще на боковушке есть отверстие микрофона, micro USB порт и слот для карты памяти micro SD.

На задней поверхности много перфорации, динамик, утопленная кнопка сброса настроек, наклейка с QR-кодом для подключения камеры особо не нужна, можно подключить и без нее.

Водостойкости нет. Крепить удобнее всего за петельку или колхозить что-то свое. Достаточно простой канцелярской иголки:

Камера достаточно миниатюрна, по размерам сопоставима с коробкой спичек. Размеры камеры: 5.8 * 3.3см.

По бокам есть вроде как защелки, которые наводят на мысль, что половина камеры как-то легко отстегивается, не мучайтесь зря — они вообще ни на что не влияют. Но разбирается камера тоже легко, сзади открутить 4 шурупа.

Конструкция простая, все на отсоединяемых разъемах: динамик, объектив, ИК подсветка. Зеленый элемент — это Realtek RTL8188FTV — комбинированный чип USB2.0 и WiFi 802.11 b/g/n:www.realtek.com.tw/products/productsView.aspx?Langid=1&PFid=48&Level=5&Conn=4&ProdID=354

Основной чип увенчан алюминиевым радиатором, что похвально, часто об отводе тепла никак не заботятся. Объектив стандартной системы M12, при желании можно поставить другой.

Отдирать так хорошо сидящий радиатор не охота, так что предположу, что под ним все тот же чип Goke GK7102.www.unifore.net/company-highlights/goke-hd-ip-camera-solution-gk7101-gk7102.html

Подключение. Для подключения требуется мобильное приложение Digoo·Cloud, есть версии под Android и iOS.play.google.com/store/apps/details?id=com.ancloudDigooCloud.awsitunes.apple.com/us/app/digoo-cloud/id1279226309?mt=8 Устанавливаем, запускаем, регистрируемся, e-mail надо указать действительный, на него придет подтверждение регистрации и будут приходить другие важные события вроде добавления/ удаления камеры.

Дополнительная информация

Приложение на английском языке, внешне простое и понятное. Есть боковое меню, в нем особо ничего полезного нет, можно сменить e-mail или пароль, выйти.

Для добавления камеры нажать кнопку Add a new device или +. И выбрать верхнее Camera, в продаже есть и другие умные устройства от этого производителя. На выбор есть три варианта добавления камеры.

Для нового подключения подходят первые два. Желательно сделать камере сброс настроек кнопкой сзади. WiFi Smart Connection — после ввода пароля от WiFi сам выполнит поиск камеры поблизости и добавит ее.

Метод Scan QR code более предпочтителен, т.к срабатывает всегда, он не читает код с наклейки на камере, а, наоборот, после ввода пароля от WiFi генерирует QR код на экране смартфона, дальше его надо поднести к объективу камеры на расстояние 15-20см, чтобы она считала настройки и подключилась.

Все события камера озвучивает негромким голосом на достаточно чистом английском, так что все понятно по ходу дела. Индикатор мигает синим, а после подключения горит синим не мигая.

Мобильное приложение. Основное окно выглядит вот так:

Дополнительная информация

Тап на картинке — попадаем в просмотр в режиме реального времени. А если таймлайн сдвинуть свайпом на нужное время — включится воспроизведение записанного. Полоски серого цвета — постоянная запись, оранжевого — сработало на движение, голубого — сработало на звук. Пальцем двигаем таймлайн, щипком двумя можно менять масштаб. В лайв режиме снизу кнопка микрофона, можно вести двустороннюю беседу по принципу рации. А в режиме воспроизведения записанного эта кнопка меняется на «Clip» — можно вырезать кусок и сохранить.

При сохранении есть возможность дать имя записи и выбрать длительность куска от 1сек до 10мин. Сохранится он в облаке в разделе фаворитов. Все происходит быстро.

Далее есть возможность управлять этим сохраненным куском, расшарить его любому установленному на смартфоне приложению, которое это умеет, либо просто сохранить на смартфон.

Еще в режиме лайв на самой картинке справа есть пара значков-кнопок, одна из них открывает список видео фаворитов (сохраненных), вторая список зарегистрированных событий тревог, откуда можно прямо перейти на таймлайн в соответствующее место для просмотра записи.

При повороте смартфона изображение автоматически поворачивается в горизонтальный вид. В нем доступны те же функции и кнопки.

А при нажатии на шестеренку открываются настройки камеры.

Камеру можно отключать кнопочкой или по расписанию, диапазонов времени можно прописать несколько. Полезно для конфиденциальности.

Тут же в приложении можно купить тарифный план. Самый дешевый тариф — $6 в месяц или $60 в год, в облаке хранятся последние 7 дней записей + 1 час сохраненных в фавориты. При подключении дается бесплатный пробный период в 3 недели именно с таким тарифным планом. Оплатить можно Paypal или картой.

При работе с облачным хранилищем наличие карты памяти совсем не обязательно. Если же ее вставить, будут доступны настройки карты памяти: информация о ней, форматирование, выбор режима записи: постоянно или по событию, режим отображения видео на таймлайне с карты или с облака. Если отображать видео с карты памяти, то будут серые полоски в те моменты, когда были события (или сплошная серая при постоянной записи).

Камера может отслеживать движение в кадре, звуки вокруг или то и то одновременно. Можно настроить получать каждое оповещение или только раз в 1мин / 5мин / 10 мин / 30 мин / 1ч. Также можно настроить несколько расписаний когда получать, а когда нет. Оповещения могут приходить на смартфон или на один или несколько прописанных почтовых адресов.

На почту будут приходить сообщения Sound detected, Motion Detected, Sound and Motion detected. Последние два содержат скриншот 1280*720.

Еще можно включить сигнализацию при движении — камера будет издавать сирену. Можно отключить микрофон и ночную подсветку, повернуть камеру на 180°.

И еще можно камеру перезагружать, полезная функция, редко бывает у других. Если камеру надо перевести на другой WiFi, который находится в том же месте, то это делается в ее настройках. Если же нужно переместить в другую локацию в недосягаемости от первоначального WiFi, то можно камеру удалить и подключить как новую или просто нажать кнопку Troubleshoot, которая в общем-то сделает то же самое.

Периодически могут прилетать обновления прошивки, ПО будет предлагать установить.

Web доступ. Кроме мобильного приложения к камере можно также подключиться из любой точки мира через облачный сайт.www.eyeplusiot.com Данные для входа те же, что и в мобильном приложении. И настроить можно практически все те же функции. Для просмотра видео необходим браузер с поддержкой flash. Можно смотреть прямой эфир и записи, вырезать куски, сохранять в избранные, а затем скачивать их.

Можно задавать настройки камере, даже есть режим маски, в котором можно выделить в каких областях кадра отслеживать движение, в каких нет, этого нет в мобильном приложении (пока).

Можно задавать и менять тарифный план и, конечно, видеть все события тревоги с прямым переходом на таймлайн.

Работает интерфейс быстро, хостится в облаке Amazon Cloud, расположен в Калифорнии, США.

Список открытых портов в камере:

Как видно, открыты telnet, web, rtsp и другие, пароль на telnet подобрать не удалось. Встроенного web интерфейса тоже нет, возможно, web сервер используется для авторизации ONVIF или еще чего. Web сервер некий Ginatex-HTTPServer:

ONVIF/RTSP есть и работает, радует то, что поток без авторизации закрыт, но пришлось гуглить, чтобы найти имя и пароль: admin, dg20160404 (для telnet не подходит). Т.е. rtsp поток такой:

rtsp://admin:[email protected]:554 Где надо подставить IP адрес камеры. Поток RTSP идет без звука в разрешении 1280*720 12fps.

Кушает камера немного, днем 0.25-0.3A, ночью 0.35A-0.4A. От повербанка типа Xiaomi 5000mAh может продержаться порядка 10-12ч.

Камера может быть добавлена только к одному аккаунту. При добавлении к другому она исчезает из списка камер у первого. При этом срок триального бесплатного использования не продлевается.

Что будет по окончании триального периода в случае непроплаты? Я специально придержал обзор, чтобы посмотреть а что произойдет по окончании пробного периода, коим был установлен день 12.01.18. Странно, но в тот и в последующий день так ничего и не произошло, а произошло аж в понедельник 15.01.18, они там что ли ручками выключают доступ, вышли в понедельник на работу и давать рубить непроплаченных? :) Мне на e-mail пришло письмо такого содержания:

Your Cloud Recording Service plan of Camera has stopped Dear ********@gmail.com, Your trial subscription for "Camera" expired on 2018-01-12 13:31. All of your access to Cloud Recording Service have been removed except live streaming. Please take a moment to review your account settings by logging in to app and select Account info. Thanks for being a Cloud Recording Service subscriber. В мобильном приложении стало писать об истекшем тарифном плане.

Лайв видео идет так же, но на таймлайне исчезли записи:

Но если в настройках перейти на записи с карты памяти, то они вернутся и будут как прежде серыми полосками:

Работает весь функционал, включая обнаружение и запись движения на карту, оповещение и т.д., не работает только запись видео в облачное хранилище. На облачном сайте то же самое, лайв видео идет, но таймлайн пропал.

При этом видеозаписи в событиях и сохраненные видео в фаворитах не исчезли, по-прежнему доступны, занятое ими место все так же показывается. Хочешь хранить видео в облаке — надо выбрать тарифный план и заплатить, все честно (самый дешевый тариф — $6 в месяц или $60 в год, в облаке хранятся последние 7 дней записей + 1 час сохраненных в фавориты).

И еще в бесплатной версии больше не работает функция Clip — вырезание и сохранение куска видео. Когда тарифный план задействован, видео сохраняется со звуком в контейнере MP4 в разрешении 720p 12fps. Инфо о файле:

Дополнительная информация

General Format : 3gr6 Codec ID : 3gr6 (3gr6/isom) File size : 8.38 MiB Duration : 4 min 37 s Overall bit rate : 253 kb/s Encoded date : UTC 2017-12-22 06:47:23 Tagged date : UTC 2017-12-22 06:47:23 Video ID : 1 Format : AVC Format/Info : Advanced Video Codec Format profile : [email protected] Format settings : CABAC / 1 Ref Frames Format settings, CABAC : Yes Format settings, ReFrames : 1 frame Codec ID : avc1 Codec ID/Info : Advanced Video Coding Duration : 4 min 37 s Bit rate : 225 kb/s Width : 1 280 pixels Height : 720 pixels Display aspect ratio : 16:9 Frame rate mode : Variable Frame rate : 11.770 FPS Minimum frame rate : 6.250 FPS Maximum frame rate : 30.303 FPS Original frame rate : 11.875 FPS Color space : YUV Chroma subsampling : 4:2:0 Bit depth : 8 bits Scan type : Progressive Bits/(Pixel*Frame) : 0.021 Stream size : 7.45 MiB (89%) Language : English Encoded date : UTC 2017-12-22 06:47:23 Tagged date : UTC 2017-12-22 06:47:23 Audio ID : 2 Format : AAC Format/Info : Advanced Audio Codec Format profile : LC Codec ID : mp4a-40-2 Duration : 4 min 37 s Source duration : 4 min 37 s Bit rate mode : Constant Bit rate : 13.4 kb/s Channel(s) : 2 channels Channel(s)_Original : 1 channel Channel positions : Front: C Sampling rate : 8 000 Hz Frame rate : 7.813 FPS (1024 SPF) Compression mode : Lossy Stream size : 453 KiB (5%) Source stream size : 453 KiB (5%) Language : English Encoded date : UTC 2017-12-22 06:47:23 Tagged date : UTC 2017-12-22 06:47:23 Пример записи видео:cloud.mail.ru/public/JsF1/hqBByfwaB

На карте памяти записи каталогизируются по датам.

Контейнер хранения — некий *.v264.

Большинство плееров отказываются его открывать, некоторые могут воспроизвести без звука и перемотки. Мой друг Гугл подсобил и подогнал плеер, который умеет справляться с такими записями — V264Player, интересно, что он упоминается в контексте камер Tenvis. Скачать можно тут:cloud.mail.ru/public/LFtL/ffbcTdtc7

Картинка за свои деньги приемлемая, даже лучше многих других одноклассников с 720p, угол обзора оптимальный для небольших помещений.

Эта камера прямой конкурент бюджетным камерам от Xiaomi. У последних в активе бесплатное облачное хранилище записей движения длиной в неделю, чего у конкурентов не наблюдается. А за Digoo более высокая скорость подключения, т.к. сервера в Штатах, а не в Китае, хранение записей в облаке Amazon Cloud, причем не только по движению, но и вообще всего потока, детектирование не только видео, но и звука, доступ к лайв камере и записям из браузера. Но облачное хранилище платное, есть разные тарифные планы на выбор. Можно обходиться и бесплатными возможностями, тогда запись будет идти на карту памяти, отслеживание видео и звука тоже будут работать, даже в браузере на сайте можно будет наблюдать, но не будет записи в облако. Камера подойдет для дома, офиса или маленького бизнеса, для присмотра за ребенком или стариком, т.е. как радионяня, но нужно подключение камеры и смартфона к интернету. Подключается легко, кто не хочет париться с настройкой региков — самое оно, даже можно проплатить несколько штук на запись в облако. Но если камер уже 5 или более, то, пожалуй, целесообразнее уже через свой регик писать.

upd1: мобильное приложение обновилось и русифицировалось.

Товар предоставлен для написания обзора магазином. Обзор опубликован в соответствии с п.18 Правил сайта.

mysku.ru

IP камера DIGOO DG-MYQ - хранит видео в облаке Amazon Cloud, работает быстро, но платно

Тестируем IP камеру с облачным хранилищем.Пробный период тоже дают.Внешне она похожа на Digoo DG-M1Q, но не стоит их путать.

Ссылка на товар в магазине:https://alitems.com/g/1e8d114494fa4183826416525dc3e8/?ulp=http%3A%2F%2Fwww.aliexpress.com%2Fitem%2FDIGOO-DG-MYQ-2-1mm-Lens-720P-WIFI-Night-Vision-Two-way-Audio-Home-Security-IP%2F32838107924.html

Официальные характеристики камеры:

скрытый текст↓ Description Brand Digoo Model DG-MYQ Cloud Storage IP Camera Image Sensor 1/4 Progressive CMOS Sensor Lens 2.1mm 110° Wide-Angle Lens Day/Night IR-CUT Auto Switch Filter Image Image HD 720P (1280*720) Frame Rate 25fps± internet adaptively adjustment Setting Brightness, Contrast, Chroma, Saturation Camera Memory Support Micro TF Card Slot (Max to 64GB) Cloud Storage Onvif Support Network Protocols TCP/IP, UDP, DNS/DDNS, SMTP, UPNP,DHCP,HTTP,etc. Network WIFI, 802.11 b/g/n Fast Configuration Acoustic smart link configuration (WIFI fast configuration) Support 2.4G router mode. (Not support 5Ghz yet) Security User authentication, Software Encryption Support System All computer Browsers, Internet Explorer, Safari, Firefox, Chrome, Opera, Mobile phone : IOS 7 up, Adroid 4.0 up General IR Light 10Pcs IR LED IR Distance 10m Operation Temperature -10°C~+50°C RH95% Max Power Supply DC 5V/1A+ Power Consumer 3W MAX Installing Way 1. Replace your any old camera in same frame support. 2. Simply hook on the wall, support hook or a wall nail. 3. Sticker on the wall. Etc...any place you can fix the camera :) Color Sand Black APP Installation Search "Digoo Cloud "in A pple Store(for IOS device) or Google Play Market(for Android device) Package Includes : 1 x Digoo DG-MYQ Cloud Storage IP Camera 1 x Digoo DG-MYQ Full English User Manual 1 x Digoo DG-MYQ Original Color Gift Package, Full PE Foam Cover Protection

Приезжает камера в такой маленькой коробочке:IP камера DIGOO DG-MYQ - хранит видео в облаке Amazon Cloud, работает быстро, но платно

Комплект максимально минимальный: только камера и бумажонка.IP камера DIGOO DG-MYQ - хранит видео в облаке Amazon Cloud, работает быстро, но платно

Больше нет ничего, даже печатной инструкции, только ссылка где ее скачать.IP камера DIGOO DG-MYQ - хранит видео в облаке Amazon Cloud, работает быстро, но платно

Просмотреть и скачать можно тут:https://docs.google.com/document/d/148XCPBLwgafqWavPOwN53UlgmGFhIVBv3P4yTt3ioMk/

Сама камера выполнена из глянцевого пластика.По форме напоминает некоторые другие камеры на рынке, например, Escam Button Q6, на которую я делал обзор, а еще больше на Digoo DG-M1Q.Спереди традиционно объектив, 10 ИК диодов, датчик освещения, индикатор событий.IP камера DIGOO DG-MYQ - хранит видео в облаке Amazon Cloud, работает быстро, но платно

ИК светодиоды видимы глазам.IP камера DIGOO DG-MYQ - хранит видео в облаке Amazon Cloud, работает быстро, но платно

Сверху имеется петелька для подвешивания камеры на крючок или шуруп.Также есть логотип Digoo.IP камера DIGOO DG-MYQ - хранит видео в облаке Amazon Cloud, работает быстро, но платно

Еще на боковушке есть отверстие микрофона, micro USB порт и слот для карты памяти micro SD.IP камера DIGOO DG-MYQ - хранит видео в облаке Amazon Cloud, работает быстро, но платно

На задней поверхности много перфорации, динамик, утопленная кнопка сброса настроек, наклейка с QR-кодом для подключения камеры особо не нужна, можно подключить и без нее.IP камера DIGOO DG-MYQ - хранит видео в облаке Amazon Cloud, работает быстро, но платно

Водостойкости нет.Крепить удобнее всего за петельку или колхозить что-то свое.Достаточно простой канцелярской иголки:IP камера DIGOO DG-MYQ - хранит видео в облаке Amazon Cloud, работает быстро, но платно

Камера достаточно миниатюрна, по размерам сопоставима с коробкой спичек.Размеры камеры: 5.8 * 3.3см.IP камера DIGOO DG-MYQ - хранит видео в облаке Amazon Cloud, работает быстро, но платно

По бокам есть вроде как защелки, которые наводят на мысль, что половина камеры как-то легко отстегивается, не мучайтесь зря - они вообще ни на что не влияют.Но разбирается камера тоже легко, сзади открутить 4 шурупа.IP камера DIGOO DG-MYQ - хранит видео в облаке Amazon Cloud, работает быстро, но платно

Конструкция простая, все на отсоединяемых разъемах: динамик, объектив, ИК подсветка.Зеленый элемент - это Realtek RTL8188FTV - комбинированный чип USB2.0 и WiFi 802.11 b/g/n:http://www.realtek.com.tw/products/productsView.aspx?Langid=1&PFid=48&Level=5&Conn=4&ProdID=354

Основной чип увенчан алюминиевым радиатором, что похвально, часто об отводе тепла никак не заботятся.Объектив стандартной системы M12, при желании можно поставить другой.IP камера DIGOO DG-MYQ - хранит видео в облаке Amazon Cloud, работает быстро, но платноIP камера DIGOO DG-MYQ - хранит видео в облаке Amazon Cloud, работает быстро, но платноIP камера DIGOO DG-MYQ - хранит видео в облаке Amazon Cloud, работает быстро, но платно

Отдирать так хорошо сидящий радиатор не охота, так что предположу, что под ним все тот же чип Goke GK7102.https://www.unifore.net/company-highlights/goke-hd-ip-camera-solution-gk7101-gk7102.html

Подключение.Для подключения требуется мобильное приложение Digoo·Cloud, есть версии под Android и iOS.https://play.google.com/store/apps/details?id=com.ancloudDigooCloud.awshttps://itunes.apple.com/us/app/digoo-cloud/id1279226309?mt=8Устанавливаем, запускаем, регистрируемся, e-mail надо указать действительный, на него придет подтверждение регистрации и будут приходить другие важные события вроде добавления/ удаления камеры.

скрытый текст↓

Приложение на английском языке, внешне простое и понятное.Есть боковое меню, в нем особо ничего полезного нет, можно сменить e-mail или пароль, выйти.IP камера DIGOO DG-MYQ - хранит видео в облаке Amazon Cloud, работает быстро, но платно

Для добавления камеры нажать кнопку Add a new device или +.И выбрать верхнее Camera, в продаже есть и другие умные устройства от этого производителя.На выбор есть три варианта добавления камеры.IP камера DIGOO DG-MYQ - хранит видео в облаке Amazon Cloud, работает быстро, но платно

Для нового подключения подходят первые два.Желательно сделать камере сброс настроек кнопкой сзади.WiFi Smart Connection - после ввода пароля от WiFi сам выполнит поиск камеры поблизости и добавит ее.IP камера DIGOO DG-MYQ - хранит видео в облаке Amazon Cloud, работает быстро, но платно

Метод Scan QR code более предпочтителен, т.к срабатывает всегда, он не читает код с наклейки на камере, а, наоборот, после ввода пароля от WiFi генерирует QR код на экране смартфона, дальше его надо поднести к объективу камеры на расстояние 15-20см, чтобы она считала настройки и подключилась.IP камера DIGOO DG-MYQ - хранит видео в облаке Amazon Cloud, работает быстро, но платно

Все события камера озвучивает негромким голосом на достаточно чистом английском, так что все понятно по ходу дела.Индикатор мигает синим, а после подключения горит синим не мигая.

Мобильное приложение.Основное окно выглядит вот так:IP камера DIGOO DG-MYQ - хранит видео в облаке Amazon Cloud, работает быстро, но платно

скрытый текст↓

Тап на картинке - попадаем в просмотр в режиме реального времени.А если таймлайн сдвинуть свайпом на нужное время - включится воспроизведение записанного.Полоски серого цвета - постоянная запись, оранжевого - сработало на движение, голубого - сработало на звук.Пальцем двигаем таймлайн, щипком двумя можно менять масштаб.В лайв режиме снизу кнопка микрофона, можно вести двустороннюю беседу по принципу рации.А в режиме воспроизведения записанного эта кнопка меняется на "Clip" - можно вырезать кусок и сохранить.IP камера DIGOO DG-MYQ - хранит видео в облаке Amazon Cloud, работает быстро, но платно

При сохранении есть возможность дать имя записи и выбрать длительность куска от 1сек до 10мин.Сохранится он в облаке в разделе фаворитов.Все происходит быстро.IP камера DIGOO DG-MYQ - хранит видео в облаке Amazon Cloud, работает быстро, но платно

Далее есть возможность управлять этим сохраненным куском, расшарить его любому установленному на смартфоне приложению, которое это умеет, либо просто сохранить на смартфон.IP камера DIGOO DG-MYQ - хранит видео в облаке Amazon Cloud, работает быстро, но платно

Еще в режиме лайв на самой картинке справа есть пара значков-кнопок, одна из них открывает список видео фаворитов (сохраненных), вторая список зарегистрированных событий тревог, откуда можно прямо перейти на таймлайн в соответствующее место для просмотра записи.IP камера DIGOO DG-MYQ - хранит видео в облаке Amazon Cloud, работает быстро, но платно

При повороте смартфона изображение автоматически поворачивается в горизонтальный вид.В нем доступны те же функции и кнопки.IP камера DIGOO DG-MYQ - хранит видео в облаке Amazon Cloud, работает быстро, но платно

А при нажатии на шестеренку открываются настройки камеры.IP камера DIGOO DG-MYQ - хранит видео в облаке Amazon Cloud, работает быстро, но платно

Камеру можно отключать кнопочкой или по расписанию, диапазонов времени можно прописать несколько.Полезно для конфиденциальности.IP камера DIGOO DG-MYQ - хранит видео в облаке Amazon Cloud, работает быстро, но платно

Тут же в приложении можно купить тарифный план.Самый дешевый тариф - $6 в месяц или $60 в год, в облаке хранятся последние 7 дней записей + 1 час сохраненных в фавориты.При подключении дается бесплатный пробный период в 3 недели именно с таким тарифным планом.Оплатить можно Paypal или картой.IP камера DIGOO DG-MYQ - хранит видео в облаке Amazon Cloud, работает быстро, но платно

При работе с облачным хранилищем наличие карты памяти совсем не обязательно.Если же ее вставить, будут доступны настройки карты памяти: информация о ней, форматирование, выбор режима записи: постоянно или по событию, режим отображения видео на таймлайне с карты или с облака.Если отображать видео с карты памяти, то будут серые полоски в те моменты, когда были события (или сплошная серая при постоянной записи).IP камера DIGOO DG-MYQ - хранит видео в облаке Amazon Cloud, работает быстро, но платноIP камера DIGOO DG-MYQ - хранит видео в облаке Amazon Cloud, работает быстро, но платно

Камера может отслеживать движение в кадре, звуки вокруг или то и то одновременно.Можно настроить получать каждое оповещение или только раз в 1мин / 5мин / 10 мин / 30 мин / 1ч.Также можно настроить несколько расписаний когда получать, а когда нет.Оповещения могут приходить на смартфон или на один или несколько прописанных почтовых адресов.IP камера DIGOO DG-MYQ - хранит видео в облаке Amazon Cloud, работает быстро, но платно

На почту будут приходить сообщения Sound detected, Motion Detected, Sound and Motion detected.Последние два содержат скриншот 1280*720.IP камера DIGOO DG-MYQ - хранит видео в облаке Amazon Cloud, работает быстро, но платно

Еще можно включить сигнализацию при движении - камера будет издавать сирену.Можно отключить микрофон и ночную подсветку, повернуть камеру на 180°.IP камера DIGOO DG-MYQ - хранит видео в облаке Amazon Cloud, работает быстро, но платно

И еще можно камеру перезагружать, полезная функция, редко бывает у других.Если камеру надо перевести на другой WiFi, который находится в том же месте, то это делается в ее настройках.Если же нужно переместить в другую локацию в недосягаемости от первоначального WiFi, то можно камеру удалить и подключить как новую или просто нажать кнопку Troubleshoot, которая в общем-то сделает то же самое.IP камера DIGOO DG-MYQ - хранит видео в облаке Amazon Cloud, работает быстро, но платно

Периодически могут прилетать обновления прошивки, ПО будет предлагать установить.IP камера DIGOO DG-MYQ - хранит видео в облаке Amazon Cloud, работает быстро, но платноIP камера DIGOO DG-MYQ - хранит видео в облаке Amazon Cloud, работает быстро, но платно

Web доступ.Кроме мобильного приложения к камере можно также подключиться из любой точки мира через облачный сайт.https://www.eyeplusiot.comДанные для входа те же, что и в мобильном приложении.И настроить можно практически все те же функции.Для просмотра видео необходим браузер с поддержкой flash.Можно смотреть прямой эфир и записи, вырезать куски, сохранять в избранные, а затем скачивать их.IP камера DIGOO DG-MYQ - хранит видео в облаке Amazon Cloud, работает быстро, но платноIP камера DIGOO DG-MYQ - хранит видео в облаке Amazon Cloud, работает быстро, но платно

Можно задавать настройки камере, даже есть режим маски, в котором можно выделить в каких областях кадра отслеживать движение, в каких нет, этого нет в мобильном приложении (пока).IP камера DIGOO DG-MYQ - хранит видео в облаке Amazon Cloud, работает быстро, но платноIP камера DIGOO DG-MYQ - хранит видео в облаке Amazon Cloud, работает быстро, но платно

Можно задавать и менять тарифный план и, конечно, видеть все события тревоги с прямым переходом на таймлайн.IP камера DIGOO DG-MYQ - хранит видео в облаке Amazon Cloud, работает быстро, но платно

Работает интерфейс быстро, хостится в облаке Amazon Cloud, расположен в Калифорнии, США.

Список открытых портов в камере:IP камера DIGOO DG-MYQ - хранит видео в облаке Amazon Cloud, работает быстро, но платно

Как видно, открыты telnet, web, rtsp и другие, пароль на telnet подобрать не удалось.Встроенного web интерфейса тоже нет, возможно, web сервер используется для авторизации ONVIF или еще чего.Web сервер некий Ginatex-HTTPServer:IP камера DIGOO DG-MYQ - хранит видео в облаке Amazon Cloud, работает быстро, но платно

ONVIF/RTSP есть и работает, радует то, что поток без авторизации закрыт, но пришлось гуглить, чтобы найти имя и пароль:admin, dg20160404 (для telnet не подходит).Т.е. rtsp поток такой:

rtsp://admin:[email protected]:554 Где надо подставить IP адрес камеры. Поток RTSP идет без звука в разрешении 1280*720 12fps.

Кушает камера немного, днем 0.25-0.3A, ночью 0.35A-0.4A.От повербанка типа Xiaomi 5000mAh может продержаться порядка 10-12ч.IP камера DIGOO DG-MYQ - хранит видео в облаке Amazon Cloud, работает быстро, но платно

Камера может быть добавлена только к одному аккаунту.При добавлении к другому она исчезает из списка камер у первого.При этом срок триального бесплатного использования не продлевается.

Что будет по окончании триального периода в случае непроплаты?Я специально придержал обзор, чтобы посмотреть а что произойдет по окончании пробного периода, коим был установлен день 12.01.18.Странно, но в тот и в последующий день так ничего и не произошло, а произошло аж в понедельник 15.01.18, они там что ли ручками выключают доступ, вышли в понедельник на работу и давать рубить непроплаченных? :)Мне на e-mail пришло письмо такого содержания:

Your Cloud Recording Service plan of Camera has stopped Dear ********@gmail.com, Your trial subscription for "Camera" expired on 2018-01-12 13:31. All of your access to Cloud Recording Service have been removed except live streaming. Please take a moment to review your account settings by logging in to app and select Account info. Thanks for being a Cloud Recording Service subscriber. В мобильном приложении стало писать об истекшем тарифном плане.IP камера DIGOO DG-MYQ - хранит видео в облаке Amazon Cloud, работает быстро, но платно

Лайв видео идет так же, но на таймлайне исчезли записи:IP камера DIGOO DG-MYQ - хранит видео в облаке Amazon Cloud, работает быстро, но платно

Но если в настройках перейти на записи с карты памяти, то они вернутся и будут как прежде серыми полосками:IP камера DIGOO DG-MYQ - хранит видео в облаке Amazon Cloud, работает быстро, но платно

Работает весь функционал, включая обнаружение и запись движения на карту, оповещение и т.д., не работает только запись видео в облачное хранилище.На облачном сайте то же самое, лайв видео идет, но таймлайн пропал.IP камера DIGOO DG-MYQ - хранит видео в облаке Amazon Cloud, работает быстро, но платно

При этом видеозаписи в событиях и сохраненные видео в фаворитах не исчезли, по-прежнему доступны, занятое ими место все так же показывается.Хочешь хранить видео в облаке - надо выбрать тарифный план и заплатить, все честно (самый дешевый тариф — $6 в месяц или $60 в год, в облаке хранятся последние 7 дней записей + 1 час сохраненных в фавориты).

И еще в бесплатной версии больше не работает функция Clip - вырезание и сохранение куска видео.Когда тарифный план задействован, видео сохраняется со звуком в контейнере MP4 в разрешении 720p 12fps.Инфо о файле:

скрытый текст↓ General Format : 3gr6 Codec ID : 3gr6 (3gr6/isom) File size : 8.38 MiB Duration : 4 min 37 s Overall bit rate : 253 kb/s Encoded date : UTC 2017-12-22 06:47:23 Tagged date : UTC 2017-12-22 06:47:23 Video ID : 1 Format : AVC Format/Info : Advanced Video Codec Format profile : [email protected] Format settings : CABAC / 1 Ref Frames Format settings, CABAC : Yes Format settings, ReFrames : 1 frame Codec ID : avc1 Codec ID/Info : Advanced Video Coding Duration : 4 min 37 s Bit rate : 225 kb/s Width : 1 280 pixels Height : 720 pixels Display aspect ratio : 16:9 Frame rate mode : Variable Frame rate : 11.770 FPS Minimum frame rate : 6.250 FPS Maximum frame rate : 30.303 FPS Original frame rate : 11.875 FPS Color space : YUV Chroma subsampling : 4:2:0 Bit depth : 8 bits Scan type : Progressive Bits/(Pixel*Frame) : 0.021 Stream size : 7.45 MiB (89%) Language : English Encoded date : UTC 2017-12-22 06:47:23 Tagged date : UTC 2017-12-22 06:47:23 Audio ID : 2 Format : AAC Format/Info : Advanced Audio Codec Format profile : LC Codec ID : mp4a-40-2 Duration : 4 min 37 s Source duration : 4 min 37 s Bit rate mode : Constant Bit rate : 13.4 kb/s Channel(s) : 2 channels Channel(s)_Original : 1 channel Channel positions : Front: C Sampling rate : 8 000 Hz Frame rate : 7.813 FPS (1024 SPF) Compression mode : Lossy Stream size : 453 KiB (5%) Source stream size : 453 KiB (5%) Language : English Encoded date : UTC 2017-12-22 06:47:23 Tagged date : UTC 2017-12-22 06:47:23

Пример записи видео:https://cloud.mail.ru/public/JsF1/hqBByfwaB

На карте памяти записи каталогизируются по датам.IP камера DIGOO DG-MYQ - хранит видео в облаке Amazon Cloud, работает быстро, но платно

Контейнер хранения - некий *.v264.IP камера DIGOO DG-MYQ - хранит видео в облаке Amazon Cloud, работает быстро, но платно

Большинство плееров отказываются его открывать, некоторые могут воспроизвести без звука и перемотки.Мой друг Гугл подсобил и подогнал плеер, который умеет справляться с такими записями - V264Player, интересно, что он упоминается в контексте камер Tenvis.Скачать можно тут:https://cloud.mail.ru/public/LFtL/ffbcTdtc7IP камера DIGOO DG-MYQ - хранит видео в облаке Amazon Cloud, работает быстро, но платно

Картинка за свои деньги приемлемая, даже лучше многих других одноклассников с 720p, угол обзора оптимальный для небольших помещений.IP камера DIGOO DG-MYQ - хранит видео в облаке Amazon Cloud, работает быстро, но платноIP камера DIGOO DG-MYQ - хранит видео в облаке Amazon Cloud, работает быстро, но платно

Эта камера прямой конкурент бюджетным камерам от Xiaomi.У последних в активе бесплатное облачное хранилище записей движения длиной в неделю, чего у конкурентов не наблюдается.А за Digoo более высокая скорость подключения, т.к. сервера в Штатах, а не в Китае, хранение записей в облаке Amazon Cloud, причем не только по движению, но и вообще всего потока, детектирование не только видео, но и звука, доступ к лайв камере и записям из браузера. Но облачное хранилище платное, есть разные тарифные планы на выбор.Можно обходиться и бесплатными возможностями, тогда запись будет идти на карту памяти, отслеживание видео и звука тоже будут работать, даже в браузере на сайте можно будет наблюдать, но не будет записи в облако.Камера подойдет для дома, офиса или маленького бизнеса, для присмотра за ребенком или стариком, т.е. как радионяня, но нужно подключение камеры и смартфона к интернету.Подключается легко, кто не хочет париться с настройкой региков - самое оно, даже можно проплатить несколько штук на запись в облако. Но если камер уже 5 или более, то, пожалуй, целесообразнее уже через свой регик писать.

upd1: мобильное приложение обновилось и русифицировалось.IP камера DIGOO DG-MYQ - хранит видео в облаке Amazon Cloud, работает быстро, но платноIP камера DIGOO DG-MYQ - хранит видео в облаке Amazon Cloud, работает быстро, но платно

Видеообзор:

www.taker.im

Обзор IP камер для видеонаблюдения через интернет

Автор: Александр Старченко

Удаленное видеонаблюдение с каждым днем становится все популярнее. Такая популярность обуславливается, в первую очередь, возможностью контроля происходящего перед камерами через интернет с любого устройства из любого места планеты. С ростом спроса растет и предложение – производители стараются выпускать оборудование уже изначально настроенное на подключение к собственному сервису, что значительно упрощает задачу запуска подобной системы и экономит время на настройку камеры.

Содержание:

  1. Новая технологичная облачная IP камера Nobelic NBQ-1110F
  2. IP видеокамера от сервиса IVideon ocO
  3. Камеры от облачного сервиса SpaceCam
  4. IP камеры от CamDrive
  5. Облачные IP камеры от TP-Link

Условно для онлайн видеонаблюдения можно взять любую IP камеру, и вручную настроить удаленный доступ к ней. Но сегодня существуют уже готовые к интеграции с определенными сервисами устройства, которые требуют минимальных настроек.

Новая технологичная облачная IP камера Nobelic NBQ-1110F

Новинкой от облачного сервиса IVideon, представленной в начале Октября 2016 года, является стильная камера Nobelic NBQ-1110F, с еще более технологичной начинкой, чем камера ocO. Камера имеет все те же преимущества, что и ocO, и даже превосходит ее:

  • Широкий угол обзора — 125° по горизонтали, благодаря чему можно при помощи одной камеры просматривать всю площадь помещения;
  • Высокое разрешение записи — 1280x960p — ни одна деталь больше ни останется незамеченной;
  • Встроенная ИК подсветка, позволяющая снимать ночью;
  • Поддержка Wi-Fi и Micro SD карт памяти — карта на 16 Гб идет в комплекте;
  • Легкое подключение — достаточно просто показать QR код, полученный в приложении для Android и iOS в объектив камеры, и камера полностью готова к работе;
  • Еще более стильный корпус, который впишется в любой интерьер;
  • Удобное крепление позволяет установить камеру на любой горизонтальной и вертикальной поверхности, а благодаря наличию магнита в основании камеру можно прикрепить даже на холодильник.

Также предлагаем посмотреть небольшой ролик от компании IVideon, который наглядно демонстрирует процесс подключения, а также дизайн и возможности камеры:

IP видеокамера от сервиса IVideon — ocO

Одним из примеров подобных камер может служить IP камера для видеонаблюдения через интернет ocO от сервиса IVideon. Она полностью совместима с данным облаком, и все что нужно для настройки видеонаблюдения самостоятельно с использованием данной камеры – произвести первоначальные настройки параметров через специальное приложение, которое можно скачать бесплатно для всех популярных мобильных и компьютерных ОС: андроид, iOS, Windows и пр.

IP камера ocO

С помощью домашней IP камеры ocO можно удаленно следить за тем, что происходит у вас дома: присмотреть за питомцем, ребенком, а также можно использовать ее в качестве радио няни, когда нужно отойти ненадолго. Камера имеет высокое разрешение записи – 720х1280, и широкий угол обзора 120°, благодаря этому в ее обзор попадает каждая деталь даже в тесном помещении. Oco можно настроить так, чтобы система оповещала вас о возникновении движения или звука, автоматически отправляя на ваш электронный адрес сообщения, с прикреплением стоп кадров происходящего.

Настроить удаленное видеонаблюдение при помощи данной камеры очень просто при помощи специального приложения для современных мобильных ОС – достаточно просто зарегистрироваться на сервисе, подключить камеру к сети питания и маршрутизатору по Wi-Fi, и ввести данные учетной записи в мобильном клиенте, участия компьютера не требуется. Показав QR код в объектив камеры она самостоятельно подключится к сервису IVideon, и начнет вещание потокового видео на ваше мобильное устройство.

Вся подробная информация о подключении дается прямо в мобильном клиенте непосредственно при настройке доступа к устройству, так что удаленный доступ к камере настраивается буквально за несколько минут.

Полный обзор камеры ocO с большим количеством фотографий читайте по этой сссылке.

Порядок подключения облачной IP камеры ocO от сервиса IVideon

Камеры от облачного сервиса SpaceCam

Не так давно компания Rvi запустила облачный сервис для своих камер, и сегодня предлагает потребителям собственные IP камеры с поддержкой облака SpaceCam.ru. Специально под сервис были разработаны одноименные камеры, а также прошиты под данное облако некоторые модели камер Rvi. Подключение к данному сервису осуществляется немного по другому принципу, чем у IVideon.

Облачная IP камера SpaceCam T1

Для примера разберем интересную модель поворотной камеры  SpaceCam T1. Объектив данного устройства имеет угол обзора 69°, а возможность поворота корпуса на 360° обеспечивает возможность удаленного контроля над всей территорией комнаты при помощи одной камеры. Разрешение записи видео составляет 720p, но для записи в облако оно может иметь меньшие значения в зависимости от выбранного тарифа. Есть возможность ведения ночной съемки благодаря встроенному диоду ИК подсветки, имеется микрофон и Wi-Fi модуль. Стоимость устройства составляет около 11 000 р.

Камеры SpaceCam имеют наиболее простую настройку, по сравнению с другими моделями, предлагаемыми сервисом (Rvi, Hikvision), но по сравнению с устройствами от IVideon она все же займет несколько больше времени в связи с некоторыми нюансами. Просматривать изображение с камер можно так же из любой точки земли с Android или iOS гаджетов. Ознакомиться с подробными инструкциями для каждого вида камер вы можете на сайте облачного сервиса SpaceCam.

IP камеры от CamDrive

Бюджетным вариантом камер для интернет видеонаблюдения можно назвать устройства от облачного сервиса CamDrive, который предлагает BEWARD и Camdrive с поддержкой собственного облака. Стоимость устройств видеозахвата варьируется от 5900 до 7300 р., имеются как домашние, так и наружные камеры.

Данные аппараты также имеют простое подключение к облачному сервису: подключаем камеру к источнику питания, затем при помощи кабеля или Wi-Fi соединяем устройство с роутером, и регистрируемся на сайте camdrive.ru. После этих шагов уже можно наблюдать картинку с камеры в личном кабинете. Подробную инструкцию пользователя найти на сайте по ссылке, указанной выше.

IP камера для удаленного видеонаблюдения от Camdrive — CD100

Для примера разберем самую бюджетную IP камеру CD100 (5900р). Разрешение видеозаписи данного аппарата может показаться недостаточным – всего 640х480, следовательно, различить лица людей уже с нескольких метров будет невозможно. Впрочем, все устройства под данным брендом имеют подобные характеристики, поэтому нужно заранее знать об этом «недостатке» и быть готовым с ним мириться. Если вам необходимо более высокое разрешение, там же вы можете найти камеры марки BEWARD приспособленные к данному облаку. Камера CD100 имеет относительно небольшой угол обзора 58°, и встроенный детектор движения с настройкой записи по событию.

Аналогично с предыдущими вариантами, просматривать изображение с камер можно удаленно с любого гаджета под управлением современных операционных систем и наличием выхода в интренет.

Облачные IP камеры от TP-Link

IP камеры от производителя TP-Link обладают еще меньшей стоимостью, по сравнению с камерами от предыдущего сервиса. Самый бюджетный вариант можно приобрести за сумму в пределах 3000 р (TP-Link NC200).

Настройка устройств данного производителя осуществляется так же легко за считанные минуты. Облачная камера автоматически подключается к роутеру по Wi-Fi после нажатия на ее корпусе кнопки WPS (роутер также должен поддерживать функцию WPS). После этого необходимо загрузить приложение tpCamera, которое поможет вам осуществить дальнейшие настройки. При помощи данного приложения вы сможете просматривать изображение с камер со своего мобильного телефона удаленно под управлением современных ОС.

Разместить камеры можно как на горизонтальных, так и на вертикальных поверхностях при помощи удобного кронштейна-подставки, идущего в комплекте.

TP-Link NC250

В качестве примера приведем облачную IP камеру TP-Link NC250 (схожими характеристиками обладают и другие модели производителя – NC220, и новинка NC230), имеющую высокое разрешение записи видеопотока 720р HD, благодаря чему обеспечивается высокая четкость изображения. Угол обзора относительно небольшой, и составляет 64°. Камера имеет ИК подсветку с дальностью до 5,5 метров, что позволяет вести видеонаблюдение круглосуточно, как днем, так и ночью. Также благодаря встроенным детекторам звука и движения устройство умеет отсылать уведомления по электронной почте при возникновении шума или движения в области кадра.

Использовать данное устройство вы можете дома или в офисе, и наблюдать за обстановкой в режиме онлайн с вашего мобильного телефона где бы вы ни находились. Стоимость TP-Link NC250 составляет около 5000р,  NC220 ~ 4300р., новинка NC230 еще особо нигде не представлена.

Итак, в этой статье мы привели самые актуальные на сегодняшний день IP камеры для видеонаблюдения через интернет, которые в автоматическом порядке с минимальными затратами сил и времени с вашей стороны подключаются к облачному сервису производителя, и начинают передавать картинку в интернет.

Удачи вам в выборе камеры, надеемся вы не ошибетесь, и выберете тот вариант, который будет подходить именно вам, а наш материал вам в этом поможет!

С этим читают:

Понравилась статья? Поделись с друзьями в соц сетях!

nabludaykin.ru


Смотрите также